Нетренированный военкоммунист (uncle_ho) wrote,
Нетренированный военкоммунист
uncle_ho

Raws

Что же всё-таки лучше? Zero, Leopard, raws4u? Или в каждом конкретном случае по-разному?

Возьмём как пример медиа-инфо по Soredemo Machi wa Mawatteiru
1.
General
Complete name : E:\MyWorks\[Zero-Raws] Soredemo Machi wa Mawatteiru - 02 (TBS 1280x720 x264 AAC).mp4
Format : MPEG-4
Format profile : Base Media
Codec ID : isom
File size : 251 MiB
Duration : 24mn 30s
Overall bit rate : 1 430 Kbps
Encoded date : UTC 2010-10-14 10:07:14
Tagged date : UTC 2010-10-14 10:07:14
Writing application : Yamb 2.1.0.0 [http://yamb.unite-video.com]

Video
ID : 1
Format : AVC
Format/Info : Advanced Video Codec
Format profile : High@L4.1
Format settings, CABAC : Yes
Format settings, ReFrames : 4 frames
Codec ID : avc1
Codec ID/Info : Advanced Video Coding
Duration : 24mn 29s
Bit rate mode : Variable
Bit rate : 1 231 Kbps
Maximum bit rate : 8 593 Kbps
Width : 1 280 pixels
Height : 720 pixels
Display aspect ratio : 16:9
Frame rate mode : Variable
Frame rate : 24.463 fps
Original frame rate : 23.976 fps
Minimum frame rate : 23.971 fps
Maximum frame rate : 59.940 fps
Color space : YUV
Chroma subsampling : 4:2:0
Bit depth : 8 bits
Scan type : Progressive
Bits/(Pixel*Frame) : 0.055
Stream size : 216 MiB (86%)
Writing library : x264 core 84 r1416 fcf70c2
Encoding settings : cabac=1 / ref=4 / deblock=1:0:0 / analyse=0x3:0x113 / me=esa / subme=9 / psy=1 / psy_rd=1.0:0.0 / mixed_ref=1 / me_range=32 / chroma_me=1 / trellis=0 / 8x8dct=1 / cqm=0 / deadzone=21,11 / fast_pskip=1 / chroma_qp_offset=-2 / threads=4 / sliced_threads=0 / nr=0 / decimate=1 / mbaff=0 / constrained_intra=0 / bframes=3 / b_pyramid=0 / b_adapt=2 / b_bias=0 / direct=3 / wpredb=1 / wpredp=2 / keyint=250 / keyint_min=1 / scenecut=70 / intra_refresh=0 / rc_lookahead=40 / rc=crf / mbtree=1 / crf=20.5 / qcomp=0.70 / qpmin=10 / qpmax=51 / qpstep=10 / ip_ratio=1.40 / aq=1:1.00
Encoded date : UTC 2010-10-14 05:23:55
Tagged date : UTC 2010-10-14 10:07:21

Audio
ID : 2
Format : AAC
Format/Info : Advanced Audio Codec
Format version : Version 4
Format profile : LC
Format settings, SBR : No
Codec ID : 40
Duration : 24mn 30s
Bit rate mode : Variable
Bit rate : 192 Kbps
Maximum bit rate : 221 Kbps
Channel(s) : 2 channels
Channel positions : Front: L R
Sampling rate : 48.0 KHz
Stream size : 34.0 MiB (14%)
Encoded date : UTC 2010-10-14 10:07:21
Tagged date : UTC 2010-10-14 10:07:21

Menu
00:00:00.000 : avan
00:00:21.021 : OP
00:02:00.988 : Apart
00:11:17.977 : Bpart
00:22:19.972 : ED

2.
General
Complete name : E:\MyWorks\[Leopard-Raws] Soredemo Machi wa Mawatteiru - 02 RAW (TBS 1280x720 x264 AAC).mp4
Format : MPEG-4
Format profile : Base Media
Codec ID : isom
File size : 270 MiB
Duration : 24mn 29s
Overall bit rate : 1 540 Kbps
Encoded date : UTC 2010-10-14 07:14:36
Tagged date : UTC 2010-10-14 07:14:36

Video
ID : 1
Format : AVC
Format/Info : Advanced Video Codec
Format profile : High@L4.0
Format settings, CABAC : Yes
Format settings, ReFrames : 3 frames
Codec ID : avc1
Codec ID/Info : Advanced Video Coding
Duration : 24mn 29s
Bit rate mode : Variable
Bit rate : 1 376 Kbps
Maximum bit rate : 9 504 Kbps
Width : 1 280 pixels
Height : 720 pixels
Display aspect ratio : 16:9
Frame rate mode : Variable
Frame rate : 24.526 fps
Original frame rate : 23.976 fps
Minimum frame rate : 23.976 fps
Maximum frame rate : 119.880 fps
Color space : YUV
Chroma subsampling : 4:2:0
Bit depth : 8 bits
Scan type : Progressive
Bits/(Pixel*Frame) : 0.061
Stream size : 241 MiB (89%)
Writing library : x264 core 75 r1246 5b3c89c
Encoding settings : cabac=1 / ref=3 / deblock=1:-2:-2 / analyse=0x3:0x133 / me=umh / subme=9 / psy=1 / psy_rd=0.5:0.0 / mixed_ref=1 / me_range=32 / chroma_me=1 / trellis=2 / 8x8dct=1 / cqm=0 / deadzone=21,11 / chroma_qp_offset=-2 / threads=3 / nr=0 / decimate=1 / mbaff=0 / bframes=2 / b_pyramid=0 / b_adapt=2 / b_bias=0 / direct=3 / wpredb=1 / keyint=240 / keyint_min=1 / scenecut=40 / rc_lookahead=36 / rc=crf / mbtree=1 / crf=19.0 / qcomp=0.60 / qpmin=10 / qpmax=51 / qpstep=8 / ip_ratio=1.40 / aq=1:1.00
Encoded date : UTC 2010-10-14 07:14:23
Tagged date : UTC 2010-10-14 07:14:44

Audio
ID : 2
Format : AAC
Format/Info : Advanced Audio Codec
Format version : Version 4
Format profile : LC
Format settings, SBR : No
Codec ID : 40
Duration : 24mn 29s
Bit rate mode : Variable
Bit rate : 160 Kbps
Maximum bit rate : 196 Kbps
Channel(s) : 2 channels
Channel positions : Front: L R
Sampling rate : 48.0 KHz
Stream size : 28.0 MiB (10%)
Language : Japanese
Encoded date : UTC 2010-10-14 07:14:28
Tagged date : UTC 2010-10-14 07:14:44

У леопарда выше битрэйт у видео, но хуже у звука, также отсутствуют главы, а вот на что ещё надо внимание обратить?
Subscribe
  • Post a new comment

    Error

    Anonymous comments are disabled in this journal

    default userpic

    Your reply will be screened

    Your IP address will be recorded 

  • 6 comments